Mobile Media Converter, convirtiendo fácilmente archivos de audio y vídeo

Ubuntu Mobile Media Converter

Mobile Media Converter es un programa que permite convertir de manera rápida sencilla archivos de audio y vídeo que cuenta con soporte para una amplía variedad de formatos, entre los que se encuentran OGG, MP3, AVI, MPEG, FLV, WAV, WMA, WMV, MOV, WebM y 3GP.

Lo más interesante de la aplicación es que permite crear archivos compatibles con una amplía gama de dispositivos móviles, como el iPod, iPhone, iPad, Sony Xperia, algunas versiones del Samsung Galaxy, algunos modelos de dispositivos Motorola, Nokia y Blackberry, así como la PSP. En el sitio oficial del programa aparece un listado bastante extenso de los dispositivos soportados según reportes de los usuarios.

Otra característica de Mobile Media Converter es que incluye una herramienta para descargar vídeos de YouTube, ofreciendo la posibilidad de convertirlos después a cualquiera de los formatos soportados. Incluye también una herramienta para ripear DVDs. Todo con una interfaz de usuario que resulta la mar de simple.

Instalación en Ubuntu

Los usuarios de la distribución de Canonical tienen a su disposición un paquete DEB para instalar la aplicación de manera sencilla. Eso sí, antes habrá que instalar MEncoder desde el repositorio Medibuntu. El paquete DEB está disponible tanto para arquitecturas de 32 como de 64 bits. Los usuarios de otras distribuciones —o usuarios avanzados de Ubuntu— pueden descargar el código fuente para compilarlo por su cuenta.

Más información – Añadiendo el repositorio Medibuntu en Ubuntu 12.10


Categorías

Software, Ubuntu

Francisco J.

Entusiasta del software libre y de código abierto, siempre sin tocar extremos. No he usado desde hace varios años un ordenador cuyo sistema operativo no sea Linux y cuyo entorno de escritorio no sea KDE, aunque mantengo la mirada en las distintas alternativas. Puedes contactarme enviando un correo a fco.ubunlog(at)gmail.com

2 comentarios

  1.   DENNISBA31 dijo

    Hola Francisco, yo soy inexperto en el manejo del ubuntu y necesito hacer la conversión de algunos vídeos 3gp y luego de leer bien todo tu post he seguido todas tus instrucciones para la instalación pero cuando trato de hacer la conversión el programa me arroja el siguiente informe de error (estoy trabajando con ubuntu 12.04):

    >> Command executed:
    ffmpeg -y -i “/home/dennis/Escritorio/TEMPORALES/camera/MiVideo_14.3gp” -f avi -vcodec msmpeg4v2 -r 25 -b 2000K -acodec libmp3lame -ac 2 -ar 44100 -ab 128k “/home/dennis/Escritorio/TEMPORALES/camera/MiVideo_14.avi”

    >> Result:
    ffmpeg version 0.8.5-4:0.8.5-0ubuntu0.12.04.1, Copyright (c) 2000-2012 the Libav developers
    built on Jan 24 2013 18:03:14 with gcc 4.6.3
    *** THIS PROGRAM IS DEPRECATED ***
    This program is only provided for compatibility and will be removed in a future release. Please use avconv instead.
    [mov,mp4,m4a,3gp,3g2,mj2 @ 0x8581220] max_analyze_duration reached
    Input #0, mov,mp4,m4a,3gp,3g2,mj2, from ‘/home/dennis/Escritorio/TEMPORALES/camera/MiVideo_14.3gp’:
    Metadata:
    major_brand : 3gp5
    minor_version : 0
    compatible_brands: 3gp5isom
    creation_time : 2013-02-01 22:24:12
    Duration: 00:00:23.76, start: 0.000000, bitrate: 77 kb/s
    Stream #0.0(eng): Video: mpeg4 (Simple Profile), yuv420p, 176×144 [PAR 1:1 DAR 11:9], 66 kb/s, 7.03 fps, 30 tbr, 1k tbn, 30 tbc
    Metadata:
    creation_time : 2013-02-01 22:24:12
    Stream #0.1(eng): Audio: sevc / 0x63766573, 8000 Hz, 2 channels, 9 kb/s
    Metadata:
    creation_time : 2013-02-01 22:24:12
    [buffer @ 0x85845a0] w:176 h:144 pixfmt:yuv420p
    Incompatible sample format ‘(null)’ for codec ‘libmp3lame’, auto-selecting format ‘s16’
    Output #0, avi, to ‘/home/dennis/Escritorio/TEMPORALES/camera/MiVideo_14.avi’:
    Stream #0.0(eng): Video: msmpeg4v2, yuv420p, 176×144 [PAR 1:1 DAR 11:9], q=2-31, 2000 kb/s, 90k tbn, 25 tbc
    Metadata:
    creation_time : 2013-02-01 22:24:12
    Stream #0.1(eng): Audio: libmp3lame, 44100 Hz, 2 channels, s16, 128 kb/s
    Metadata:
    creation_time : 2013-02-01 22:24:12
    Stream mapping:
    Stream #0.0 -> #0.0
    Stream #0.1 -> #0.1
    Decoder (codec id 0) not found for input stream #0.1

    POR FAVOR AYUDA Y DE ANTEMANO MUCHAS GRACIAS!!

    1.    Francisco J. dijo

      Hola, parece que no tienes instalado el decodificador para el códec de audio de tu archivo 3GP, sevc (EVRC). No estoy seguro si la versión de FFmpeg de Ubuntu lo soporta, de lo contrario tendrías que instalar una versión más actual compilando por tu cuenta. Para ver los códecs soportados en tu instalación puedes ejecutar ffmpeg -codecs.

Escribe un comentario